(JPop Instrumental) [CD] VA - Diamond Best Mood Guitar Best - 2006, FLAC (image+.cue), lossless

Страницы :  1, 2  След.

Ответить на тему
 
Автор Сообщение

admin ®

Пол: Мужской

Стаж: 5 месяца 27 дня

Сообщений: 31

Создавать темы 04-Авг-2017 21:58

[Цитировать]

Diamond Best Mood Guitar Best
Жанр: JPop Instrumental
Носитель: CD
Страна-производитель диска (релиза): Japan
Год издания: 2006
Издатель (лейбл): Universal Music
Номер по каталогу: UPCY-6218-9
Страна исполнителя (группы): Japan
Аудиокодек: FLAC (*.flac)
Тип рипа: image+.cue
Битрейт аудио: lossless
Продолжительность: 1:30:24
Источник (релизер): Leo246
Наличие сканов в содержимом раздачи: да
Треклист:

Disc 1

DISC 1
1
禁じられた遊び
2
白い恋人たち
3
ひき潮
4
魅せられしギター
5
カタリ・カタリ
6
二つのギター
7
鉄道員
8
アルハンブラの想い出
9
夜霧のしのび逢い
10
ラ・ノヴィア
11
サウンド・オブ・サイレンス
12
イエスタデイ
13
モア
14
エデンの東
15
太陽がいっぱい

Disc 2

DISC 2
1
わが心のアランフェス
2
第三の男
3
死ぬほど愛して
4
ジャーニー・ギター
5
慕情
6
ロミオとジュリエット
7
ラスト・ワルツ
8
恋はみずいろ
9
別離
10
黒いオルフェ
11
スターダスト
12
枯葉
13
ムーン・リバー
14
ドナ・ドナ
15
サンタマリアの祈り
16
ベサメ・ムーチョ

Лог создания рипа

Exact Audio Copy V1.3 from 2. September 2016
EAC extraction logfile from 9. June 2017, 2:15
VA / Diamond Best Mood Guitar Best CD1
Used drive : PLEXTOR DVD-RW PX-608U Adapter: 1 ID: 0
Read mode : Secure
Utilize accurate stream : Yes
Defeat audio cache : Yes
Make use of C2 pointers : No
Read offset correction : 48
Overread into Lead-In and Lead-Out : No
Fill up missing offset samples with silence : Yes
Delete leading and trailing silent blocks : No
Null samples used in CRC calculations : Yes
Used interface : Native Win32 interface for Win NT & 2000
Used output format : User Defined Encoder
Selected bitrate : 896 kBit/s
Quality : High
Add ID3 tag : No
Command line compressor : C:\Program Files\Exact Audio Copy\FLAC\FLAC.EXE
Additional command line options : -6 -V -T "ARTIST=%artist%" -T "TITLE=%title%" -T "ALBUM=%albumtitle%" -T "DATE=%year%" -T "TRACKNUMBER=%tracknr%" -T "GENRE=%genre%" -T "COMMENT=%comment%" -T "BAND=%albuminterpret%" -T "ALBUMARTIST=%albuminterpret%" -T "COMPOSER=%composer%" %haslyrics%--tag-from-file=LYRICS="%lyricsfile%"%haslyrics% -T "DISCNUMBER=%cdnumber%" -T "TOTALDISCS=%totalcds%" -T "TOTALTRACKS=%numtracks%" %hascover%--picture="%coverfile%"%hascover% %source% -o %dest%
TOC of the extracted CD
Track | Start | Length | Start sector | End sector
---------------------------------------------------------
1 | 0:00.00 | 2:38.00 | 0 | 11849
2 | 2:38.00 | 2:42.65 | 11850 | 24064
3 | 5:20.65 | 2:35.21 | 24065 | 35710
4 | 7:56.11 | 2:43.30 | 35711 | 47965
5 | 10:39.41 | 2:51.50 | 47966 | 60840
6 | 13:31.16 | 2:39.09 | 60841 | 72774
7 | 16:10.25 | 2:41.24 | 72775 | 84873
8 | 18:51.49 | 2:42.22 | 84874 | 97045
9 | 21:33.71 | 2:53.35 | 97046 | 110055
10 | 24:27.31 | 2:45.43 | 110056 | 122473
11 | 27:12.74 | 2:29.41 | 122474 | 133689
12 | 29:42.40 | 3:09.52 | 133690 | 147916
13 | 32:52.17 | 3:10.03 | 147917 | 162169
14 | 36:02.20 | 2:26.26 | 162170 | 173145
15 | 38:28.46 | 1:49.17 | 173146 | 181337
Range status and errors
Selected range
Filename T:\RIP\Diamond Best Mood Guitar Best\CD1\VA - Diamond Best Mood Guitar Best CD1.wav
Peak level 97.7 %
Extraction speed 3.8 X
Range quality 100.0 %
Copy CRC E6ECA45C
Copy OK
No errors occurred
AccurateRip summary
Track 1 accurately ripped (confidence 1) [22D1A8DE] (AR v1)
Track 2 accurately ripped (confidence 1) [51FA703D] (AR v1)
Track 3 accurately ripped (confidence 1) [591B67DC] (AR v1)
Track 4 accurately ripped (confidence 1) [842405E4] (AR v1)
Track 5 accurately ripped (confidence 1) [40FF44A3] (AR v1)
Track 6 accurately ripped (confidence 1) [5FD12FBF] (AR v1)
Track 7 accurately ripped (confidence 1) [3A5A31B5] (AR v1)
Track 8 accurately ripped (confidence 1) [7FB6AE68] (AR v1)
Track 9 accurately ripped (confidence 1) [62612F8F] (AR v1)
Track 10 accurately ripped (confidence 1) [96F6C29C] (AR v1)
Track 11 accurately ripped (confidence 1) [265A48D5] (AR v1)
Track 12 accurately ripped (confidence 1) [7588B61C] (AR v1)
Track 13 accurately ripped (confidence 1) [F29FA2D0] (AR v1)
Track 14 accurately ripped (confidence 1) [7BFBAFE7] (AR v1)
Track 15 accurately ripped (confidence 1) [D1C9AFC9] (AR v1)
All tracks accurately ripped
End of status report
---- CUETools DB Plugin V2.1.6
[CTDB TOCID: aARu2enfH_lwPuYbokHXnKSFmoA-] found
Submit result: aARu2enfH_lwPuYbokHXnKSFmoA- has been confirmed
Track | CTDB Status
1 | (3/3) Accurately ripped
2 | (3/3) Accurately ripped
3 | (2/3) Accurately ripped
4 | (3/3) Accurately ripped
5 | (3/3) Accurately ripped
6 | (3/3) Accurately ripped
7 | (3/3) Accurately ripped
8 | (2/3) Accurately ripped
9 | (2/3) Accurately ripped
10 | (3/3) Accurately ripped
11 | (3/3) Accurately ripped
12 | (3/3) Accurately ripped
13 | (2/3) Accurately ripped
14 | (3/3) Accurately ripped
15 | (3/3) Accurately ripped
==== Log checksum D810EBA25738E8A1E29887809C7E6981FB955444B3BC7B790506E5036ACCF17C ====
Exact Audio Copy V1.3 from 2. September 2016
EAC extraction logfile from 9. June 2017, 2:45
Franz Loefler, Harumi Ibe,Kimura Yoshio / Diamond Best Mood Guitar Best CD2
Used drive : PLEXTOR DVD-RW PX-608U Adapter: 1 ID: 0
Read mode : Secure
Utilize accurate stream : Yes
Defeat audio cache : Yes
Make use of C2 pointers : No
Read offset correction : 48
Overread into Lead-In and Lead-Out : No
Fill up missing offset samples with silence : Yes
Delete leading and trailing silent blocks : No
Null samples used in CRC calculations : Yes
Used interface : Native Win32 interface for Win NT & 2000
Used output format : User Defined Encoder
Selected bitrate : 896 kBit/s
Quality : High
Add ID3 tag : No
Command line compressor : C:\Program Files\Exact Audio Copy\FLAC\FLAC.EXE
Additional command line options : -6 -V -T "ARTIST=%artist%" -T "TITLE=%title%" -T "ALBUM=%albumtitle%" -T "DATE=%year%" -T "TRACKNUMBER=%tracknr%" -T "GENRE=%genre%" -T "COMMENT=%comment%" -T "BAND=%albuminterpret%" -T "ALBUMARTIST=%albuminterpret%" -T "COMPOSER=%composer%" %haslyrics%--tag-from-file=LYRICS="%lyricsfile%"%haslyrics% -T "DISCNUMBER=%cdnumber%" -T "TOTALDISCS=%totalcds%" -T "TOTALTRACKS=%numtracks%" %hascover%--picture="%coverfile%"%hascover% %source% -o %dest%
TOC of the extracted CD
Track | Start | Length | Start sector | End sector
---------------------------------------------------------
1 | 0:00.00 | 5:00.06 | 0 | 22505
2 | 5:00.06 | 3:29.65 | 22506 | 38245
3 | 8:29.71 | 3:26.47 | 38246 | 53742
4 | 11:56.43 | 2:56.14 | 53743 | 66956
5 | 14:52.57 | 2:12.28 | 66957 | 76884
6 | 17:05.10 | 2:46.64 | 76885 | 89398
7 | 19:51.74 | 3:12.50 | 89399 | 103848
8 | 23:04.49 | 2:35.20 | 103849 | 115493
9 | 25:39.69 | 3:02.74 | 115494 | 129217
10 | 28:42.68 | 3:19.67 | 129218 | 144209
11 | 32:02.60 | 3:25.06 | 144210 | 159590
12 | 35:27.66 | 3:03.10 | 159591 | 173325
13 | 38:31.01 | 2:43.25 | 173326 | 185575
14 | 41:14.26 | 3:13.12 | 185576 | 200062
15 | 44:27.38 | 2:20.62 | 200063 | 210624
16 | 46:48.25 | 3:18.05 | 210625 | 225479
Range status and errors
Selected range
Filename T:\RIP\Diamond Best Mood Guitar Best\CD2\Franz Loefler, Harumi Ibe,Kimura Yoshio - Diamond Best Mood Guitar Best CD2.wav
Peak level 97.7 %
Extraction speed 4.0 X
Range quality 100.0 %
Copy CRC 66669881
Copy OK
No errors occurred
AccurateRip summary
Track 1 accurately ripped (confidence 1) [F62901F9] (AR v1)
Track 2 accurately ripped (confidence 1) [9BF58FBF] (AR v1)
Track 3 accurately ripped (confidence 1) [DFEF2E74] (AR v1)
Track 4 accurately ripped (confidence 1) [31602FC9] (AR v1)
Track 5 accurately ripped (confidence 1) [D5B79FDA] (AR v1)
Track 6 accurately ripped (confidence 1) [D68C0E16] (AR v1)
Track 7 accurately ripped (confidence 1) [2303E936] (AR v1)
Track 8 accurately ripped (confidence 1) [7FC1445E] (AR v1)
Track 9 accurately ripped (confidence 1) [4380EF23] (AR v1)
Track 10 accurately ripped (confidence 1) [10EACAAC] (AR v1)
Track 11 accurately ripped (confidence 1) [D25A8163] (AR v1)
Track 12 accurately ripped (confidence 1) [9D5BEC73] (AR v1)
Track 13 accurately ripped (confidence 1) [81FFFE4F] (AR v1)
Track 14 accurately ripped (confidence 1) [1D64746A] (AR v1)
Track 15 accurately ripped (confidence 1) [271DFC27] (AR v1)
Track 16 accurately ripped (confidence 1) [6AAB70B4] (AR v1)
All tracks accurately ripped
End of status report
---- CUETools DB Plugin V2.1.6
[CTDB TOCID: hYAstFP5Gk3KPTgUO_11qdgfyN0-] disk not present in database
Submit result: hYAstFP5Gk3KPTgUO_11qdgfyN0- has been uploaded
==== Log checksum 176D6BD8FB0EF64716B021C55B7C56613D5345CE2C624EE549C6104944ED5DA3 ====

Содержание индексной карты (.CUE)

REM GENRE Instrumental
REM DATE 2006
REM DISCID C309710F
REM COMMENT "ExactAudioCopy v1.3"
PERFORMER "VA"
TITLE "Diamond Best Mood Guitar Best CD1"
REM COMPOSER ""
FILE "VA - Diamond Best Mood Guitar Best CD1.flac" WAVE
TRACK 01 AUDIO
TITLE "Jeux Interdits"
PERFORMER "Franz Loefler"
REM COMPOSER ""
INDEX 01 00:00:00
TRACK 02 AUDIO
TITLE "Treize Jours un France"
PERFORMER "Franz Loefler"
REM COMPOSER ""
INDEX 00 02:34:30
INDEX 01 02:38:00
TRACK 03 AUDIO
TITLE "Ebb Tide"
PERFORMER "Franz Loefler"
REM COMPOSER ""
INDEX 00 05:17:20
INDEX 01 05:20:65
TRACK 04 AUDIO
TITLE "Haunted Guitar"
PERFORMER "Franz Loefler"
REM COMPOSER ""
INDEX 00 07:52:42
INDEX 01 07:56:11
TRACK 05 AUDIO
TITLE "Catari,Catari"
PERFORMER "Franz Loefler"
REM COMPOSER ""
INDEX 00 10:35:71
INDEX 01 10:39:41
TRACK 06 AUDIO
TITLE "Two Guitars"
PERFORMER "Franz Loefler"
REM COMPOSER ""
INDEX 00 13:27:45
INDEX 01 13:31:16
TRACK 07 AUDIO
TITLE "La Dedico A Te"
PERFORMER "Franz Loefler"
REM COMPOSER ""
INDEX 00 16:06:55
INDEX 01 16:10:25
TRACK 08 AUDIO
TITLE "Recuerdos de la Alhambra"
PERFORMER "Franz Loefler"
REM COMPOSER ""
INDEX 00 18:48:04
INDEX 01 18:51:49
TRACK 09 AUDIO
TITLE "La Playa"
PERFORMER "Franz Loefler"
REM COMPOSER ""
INDEX 00 21:30:26
INDEX 01 21:33:71
TRACK 10 AUDIO
TITLE "La Novia"
PERFORMER "Franz Loefler"
REM COMPOSER ""
INDEX 00 24:23:61
INDEX 01 24:27:31
TRACK 11 AUDIO
TITLE "The Sound of Silence"
PERFORMER "Harumi Ibe and Royal Philharmonic Orchestra"
REM COMPOSER ""
INDEX 00 27:09:28
INDEX 01 27:12:74
TRACK 12 AUDIO
TITLE "Yesterday"
PERFORMER "UnknowHarumi Ibe and Royal Philharmonic Orchestran Artist"
REM COMPOSER ""
INDEX 00 29:38:70
INDEX 01 29:42:40
TRACK 13 AUDIO
TITLE "More"
PERFORMER "Harumi Ibe and Royal Philharmonic Orchestra"
REM COMPOSER ""
INDEX 00 32:48:47
INDEX 01 32:52:17
TRACK 14 AUDIO
TITLE "East of Eden"
PERFORMER "Harumi Ibe and Royal Philharmonic Orchestra"
REM COMPOSER ""
INDEX 00 35:58:50
INDEX 01 36:02:20
TRACK 15 AUDIO
TITLE "Plein Soleil"
PERFORMER "Harumi Ibe and Royal Philharmonic Orchestra"
REM COMPOSER ""
INDEX 00 38:25:39
INDEX 01 38:28:46
REM GENRE Instrumental
REM DATE 2006
REM DISCID D20BBE10
REM COMMENT "ExactAudioCopy v1.3"
PERFORMER "Franz Loefler, Harumi Ibe,Kimura Yoshio"
TITLE "Diamond Best Mood Guitar Best CD2"
REM COMPOSER ""
FILE "Franz Loefler, Harumi Ibe,Kimura Yoshio - Diamond Best Mood Guitar Best CD2.flac" WAVE
TRACK 01 AUDIO
TITLE "Aranjuez,Mon Amour"
PERFORMER "Harumi Ibe and Royal Philharmonic Orchestra"
REM COMPOSER ""
INDEX 01 00:00:00
TRACK 02 AUDIO
TITLE "The Third Man"
PERFORMER "Harumi Ibe and Royal Philharmonic Orchestra"
REM COMPOSER ""
INDEX 00 04:56:36
INDEX 01 05:00:06
TRACK 03 AUDIO
TITLE "Sinno Me Moro"
PERFORMER "Harumi Ibe and Royal Philharmonic Orchestra"
REM COMPOSER ""
INDEX 00 08:26:25
INDEX 01 08:29:71
TRACK 04 AUDIO
TITLE "Johnny Guitar"
PERFORMER "Harumi Ibe and Royal Philharmonic Orchestra"
REM COMPOSER ""
INDEX 00 11:52:71
INDEX 01 11:56:43
TRACK 05 AUDIO
TITLE "Love is Many Spendored Thing"
PERFORMER "Harumi Ibe and Royal Philharmonic Orchestra"
REM COMPOSER ""
INDEX 00 14:49:11
INDEX 01 14:52:57
TRACK 06 AUDIO
TITLE "Romeo and Juliet"
PERFORMER "Kimura Yoshio"
REM COMPOSER ""
INDEX 00 17:01:39
INDEX 01 17:05:10
TRACK 07 AUDIO
TITLE "The Last Waltz"
PERFORMER "Franz Loefler"
REM COMPOSER ""
INDEX 00 19:48:27
INDEX 01 19:51:74
TRACK 08 AUDIO
TITLE "Love is Blue"
PERFORMER "Harumi Ibe and Royal Philharmonic Orchestra"
REM COMPOSER ""
INDEX 00 23:01:04
INDEX 01 23:04:49
TRACK 09 AUDIO
TITLE "C'est Irreparable"
PERFORMER "Harumi Ibe and Royal Philharmonic Orchestra"
REM COMPOSER ""
INDEX 00 25:36:23
INDEX 01 25:39:69
TRACK 10 AUDIO
TITLE "Black Orpheus"
PERFORMER "Harumi Ibe and Royal Philharmonic Orchestra"
REM COMPOSER ""
INDEX 00 28:39:23
INDEX 01 28:42:68
TRACK 11 AUDIO
TITLE "Stardust"
PERFORMER "Harumi Ibe and Royal Philharmonic Orchestra"
REM COMPOSER ""
INDEX 00 31:59:15
INDEX 01 32:02:60
TRACK 12 AUDIO
TITLE "Autumn Leaves"
PERFORMER "Harumi Ibe"
REM COMPOSER ""
INDEX 00 35:24:20
INDEX 01 35:27:66
TRACK 13 AUDIO
TITLE "Moon River"
PERFORMER "Harumi Ibe"
REM COMPOSER ""
INDEX 00 38:27:31
INDEX 01 38:31:01
TRACK 14 AUDIO
TITLE "Dona,Dona"
PERFORMER "Harumi Ibe"
REM COMPOSER ""
INDEX 00 41:10:54
INDEX 01 41:14:26
TRACK 15 AUDIO
TITLE "Who Are We"
PERFORMER "Harumi Ibe"
REM COMPOSER ""
INDEX 00 44:23:67
INDEX 01 44:27:38
TRACK 16 AUDIO
TITLE "Besame Mucho"
PERFORMER "Harumi Ibe"
REM COMPOSER ""
INDEX 00 46:44:54
INDEX 01 46:48:25
[Профиль] [ЛС]

admin ®

Пол: Мужской

Стаж: 5 месяца 27 дня

Сообщений: 31

Создавать темы 07-Авг-2017 17:31 (спустя 2 дня 19 часа)

[Цитировать]

gfgfgfgfhg
[Профиль] [ЛС]

admin ®

Пол: Мужской

Стаж: 5 месяца 27 дня

Сообщений: 31

Создавать темы 07-Авг-2017 17:31 (спустя 2 секунды)

[Цитировать]

gfdgfgffgd
[Профиль] [ЛС]

admin ®

Пол: Мужской

Стаж: 5 месяца 27 дня

Сообщений: 31

Создавать темы 07-Авг-2017 17:31 (спустя 3 секунды)

[Цитировать]

dfsfdsfdsdf
[Профиль] [ЛС]

admin ®

Пол: Мужской

Стаж: 5 месяца 27 дня

Сообщений: 31

Создавать темы 07-Авг-2017 17:31 (спустя 2 секунды)

[Цитировать]

fsddfsfdsfds
[Профиль] [ЛС]

admin ®

Пол: Мужской

Стаж: 5 месяца 27 дня

Сообщений: 31

Создавать темы 07-Авг-2017 17:31 (спустя 2 секунды)

[Цитировать]

fdsfdssfd
[Профиль] [ЛС]

admin ®

Пол: Мужской

Стаж: 5 месяца 27 дня

Сообщений: 31

Создавать темы 07-Авг-2017 17:31 (спустя 3 секунды)

[Цитировать]

fsdfdfdfsd
[Профиль] [ЛС]

admin ®

Пол: Мужской

Стаж: 5 месяца 27 дня

Сообщений: 31

Создавать темы 07-Авг-2017 17:31 (спустя 2 секунды)

[Цитировать]

rerrereer
[Профиль] [ЛС]

admin ®

Пол: Мужской

Стаж: 5 месяца 27 дня

Сообщений: 31

Создавать темы 07-Авг-2017 17:31 (спустя 2 секунды)

[Цитировать]

aaaa
[Профиль] [ЛС]

admin ®

Пол: Мужской

Стаж: 5 месяца 27 дня

Сообщений: 31

Создавать темы 07-Авг-2017 17:31 (спустя 3 секунды)

[Цитировать]

ddggdgs
[Профиль] [ЛС]

admin ®

Пол: Мужской

Стаж: 5 месяца 27 дня

Сообщений: 31

Создавать темы 07-Авг-2017 17:31 (спустя 2 секунды)

[Цитировать]

gfdfgggh
[Профиль] [ЛС]

admin ®

Пол: Мужской

Стаж: 5 месяца 27 дня

Сообщений: 31

Создавать темы 07-Авг-2017 17:31 (спустя 3 секунды)

[Цитировать]

dfghfdgfs
[Профиль] [ЛС]

admin ®

Пол: Мужской

Стаж: 5 месяца 27 дня

Сообщений: 31

Создавать темы 07-Авг-2017 17:31 (спустя 3 секунды)

[Цитировать]

gfhgdffgdh
[Профиль] [ЛС]

admin ®

Пол: Мужской

Стаж: 5 месяца 27 дня

Сообщений: 31

Создавать темы 07-Авг-2017 17:31 (спустя 2 секунды)

[Цитировать]

gfdhbfgnhhdfg
[Профиль] [ЛС]

admin ®

Пол: Мужской

Стаж: 5 месяца 27 дня

Сообщений: 31

Создавать темы 07-Авг-2017 17:31 (спустя 3 секунды)

[Цитировать]

dfgdhds
[Профиль] [ЛС]
Показать сообщения:    
Ответить на тему

Текущее время: 12-Дек 04:38

Часовой пояс: UTC ± 0



Вы не можете начинать темы
Вы не можете отвечать на сообщения
Вы не можете редактировать свои сообщения
Вы не можете удалять свои сообщения
Вы не можете голосовать в опросах
Вы не можете прикреплять файлы к сообщениям
Вы не можете скачивать файлы